osu file format v14

[General]
AudioFilename: Sharlo - START-DASH!!.mp3
AudioLeadIn: 1500
PreviewTime: 62983
Countdown: 0
SampleSet: Soft
StackLeniency: 0.7
Mode: 0
LetterboxInBreaks: 0
WidescreenStoryboard: 0

[Editor]
DistanceSpacing: 0.9
BeatDivisor: 2
GridSize: 4
TimelineZoom: 0.8

[Metadata]
Title:START:DASH!!
TitleUnicode:START:DASH!!
Artist:Sharlo
ArtistUnicode:Sharlo
Creator:Karen
Version:KwaN's Normal
Source:Love Live! School idol project
Tags:lovelive IamKwaN Crystal ラブライブ! muse
BeatmapID:729911
BeatmapSetID:310371

[Difficulty]
HPDrainRate:4
CircleSize:4
OverallDifficulty:4
ApproachRate:5
SliderMultiplier:1.15
SliderTickRate:1

[Events]
//Background and Video events
0,0,"#teamHonoka.jpg",0,0
//Break Periods
//Storyboard Layer 0 (Background)
//Storyboard Layer 1 (Fail)
//Storyboard Layer 2 (Pass)
//Storyboard Layer 3 (Foreground)
//Storyboard Sound Samples

[TimingPoints]
-715,400,4,2,88,35,1,0
885,-125,4,2,2,35,0,0
5485,-111.111111111111,4,2,88,45,0,0
5885,-111.111111111111,4,2,88,45,0,0
6085,-100,4,2,88,45,0,0
6485,-100,4,2,88,55,0,0
23285,-100,4,2,88,40,0,0
23685,-100,4,2,88,45,0,0
36085,-100,4,2,88,55,0,0
36285,-100,4,2,88,45,0,0
48885,-125,4,2,88,45,0,0
54485,-125,4,2,88,65,0,0
54685,-125,4,2,88,45,0,0
55285,-111.111111111111,4,2,88,45,0,0
63285,-100,4,2,88,45,0,1
75285,-100,4,2,88,45,0,0
76085,-100,4,2,88,45,0,1
90485,-100,4,2,88,45,0,0
92085,-100,4,2,88,45,0,1
92185,-100,4,2,88,45,0,0
105085,-100,4,2,88,40,0,0
106485,-100,4,2,88,30,0,0
108085,-100,4,2,88,20,0,0
108885,-100,4,2,88,10,0,0
109685,-100,4,2,88,5,0,0

[Colours]
Combo1 : 228,123,244
Combo2 : 117,147,241
Combo3 : 255,119,133
Combo4 : 255,252,165
Combo5 : 141,255,144
Combo6 : 252,196,87

[HitObjects]
151,228,885,6,0,L|242:219,1,92,2|0,0:0|0:0,0:0:0:0:
274,245,1485,1,2,0:0:0:0:
428,305,2285,1,0,0:0:0:0:
428,305,2485,2,0,B|447:278|449:246|437:218,1,92,2|0,0:0|0:0,0:0:0:0:
427,177,3085,1,2,0:0:0:0:
302,66,3885,1,0,0:0:0:0:
302,66,4085,6,0,L|210:59,1,92,2|0,0:0|0:0,0:0:0:0:
168,56,4685,2,0,B|195:77|199:115|180:142,1,92,2|0,0:0|0:0,0:0:0:0:
152,167,5285,1,0,0:0:0:0:
152,167,5485,2,0,L|160:274,1,103.499996841431,2|8,0:0|0:0,0:0:0:0:
146,320,6085,2,0,B|116:291|70:291|41:317,2,115,8|8|8,0:0|0:0|0:0,0:0:0:0:
248,337,7285,6,0,B|248:277|265:222,1,115,4|8,0:0|0:0,0:0:0:0:
348,163,8085,2,0,B|379:170|410:154|425:126|423:99,1,115,4|8,0:3|0:0,0:0:0:0:
330,51,8885,2,0,B|299:43|267:58|252:86|254:114,1,115,4|8,0:3|0:0,0:0:0:0:
238,216,9685,2,0,L|230:277,1,57.5,4|0,0:3|0:0,0:0:0:0:
260,315,10085,2,0,B|277:304|297:301|315:306,2,57.5,8|0|4,0:0|0:0|0:3,0:0:0:0:
172,370,10885,6,0,L|58:353,1,115,8|4,3:2|0:3,0:0:0:0:
119,269,11685,2,0,L|5:252,1,115,8|4,3:2|0:3,0:0:0:0:
68,171,12485,1,8,0:0:0:0:
126,85,12885,1,4,0:3:0:0:
187,1,13285,1,8,0:0:0:0:
284,35,13685,6,0,L|400:42,1,115,4|8,0:0|0:0,0:0:0:0:
436,138,14485,2,0,L|321:131,1,115,4|8,0:3|0:0,0:0:0:0:
299,232,15285,2,0,B|265:224|231:243|218:275|225:305,1,115,4|8,0:3|0:0,0:0:0:0:
145,363,16085,2,0,L|138:305,1,57.5,4|0,0:3|0:0,0:0:0:0:
111,261,16485,2,0,B|120:241|122:221|120:201,2,57.5,8|0|4,0:0|0:0|0:3,0:0:0:0:
18,213,17285,6,0,L|35:98,1,115,8|4,3:2|0:3,0:0:0:0:
137,114,18085,2,0,L|154:-1,1,115,8|4,3:2|0:3,0:0:0:0:
256,14,18885,1,8,0:0:0:0:
356,36,19285,2,0,L|351:97,1,57.5,4|8,0:3|0:0,0:0:0:0:
391,126,19685,2,0,B|418:106|459:121|466:163|443:186,1,115,8|4,0:0|0:0,0:0:0:0:
414,282,20485,5,4,0:3:0:0:
341,356,20885,2,0,L|227:336,1,115,4|8,0:3|0:0,0:0:0:0:
126,360,21685,2,0,B|122:338|125:317|133:298,1,57.5,4|0,0:3|0:0,0:0:0:0:
112,255,22085,2,0,B|78:259|53:247|53:247|29:256|-2:244,2,115,4|4|4,0:3|0:3|0:3,0:0:0:0:
183,180,23285,5,4,3:2:0:0:
216,82,23685,2,0,B|233:44|279:29|315:49,1,115,4|4,0:3|0:3,0:0:0:0:
409,81,24485,1,8,0:0:0:0:
439,179,24885,2,0,B|427:237|430:295,1,115,4|4,3:0|0:3,0:0:0:0:
435,345,25485,1,2,0:0:0:0:
435,345,25685,2,0,B|455:339|474:338|493:343,2,57.5,4|4|4,0:3|0:3|0:3,0:0:0:0:
332,362,26485,5,6,0:0:0:0:
258,286,26885,2,0,B|221:268|179:280|154:309,1,115,4|4,0:3|0:3,0:0:0:0:
225,383,27685,1,8,0:0:0:0:
258,286,28085,2,0,B|258:225|272:168,1,115,4|4,3:0|0:3,0:0:0:0:
292,125,28685,1,2,0:0:0:0:
292,125,28885,2,0,B|323:128|352:117,2,57.5,4|4|4,0:3|0:3|3:0,0:0:0:0:
210,61,29685,5,4,3:2:0:0:
115,102,30085,2,0,B|78:83|33:102|21:142,2,115,4|4|8,0:3|0:3|3:2,0:0:0:0:
198,163,31285,2,0,L|201:277,1,115,4|4,3:0|0:3,0:0:0:0:
201,329,31885,1,2,0:0:0:0:
201,329,32085,2,0,B|178:328|156:334|138:344,2,57.5,4|4|4,0:3|0:3|0:3,0:0:0:0:
303,344,32885,6,0,B|341:358|341:358|380:351|396:311,1,115,4|4,0:3|0:3,0:0:0:0:
427,213,33685,2,0,B|424:183|410:157,1,57.5,4|8,3:0|0:0,0:0:0:0:
364,132,34085,1,8,0:0:0:0:
409,38,34485,1,4,0:3:0:0:
305,45,34885,2,0,L|248:50,1,57.5,8|0,0:0|0:0,0:0:0:0:
212,88,35285,2,0,B|172:79|146:101|146:101|141:86|141:86|102:112|60:86,1,172.5,8|0,0:0|0:0,0:0:0:0:
10,70,36085,6,0,B|26:127|28:185,1,115,4|8,0:0|0:0,0:0:0:0:
60,281,36885,2,0,B|94:257|140:267|161:302,1,115,4|8,0:3|0:0,0:0:0:0:
243,363,37685,2,0,B|239:304|254:249,2,115,4|8|4,0:3|0:0|0:3,0:0:0:0:
345,379,38885,2,0,B|384:393|426:369|435:329,1,115,8|4,0:0|0:3,0:0:0:0:
449,227,39685,5,8,0:0:0:0:
390,141,40085,2,0,L|275:150,1,115,4|8,0:3|0:0,0:0:0:0:
185,201,40885,2,0,B|164:165|168:123|190:92,2,115,4|8|4,0:3|0:0|0:3,0:0:0:0:
228,294,42085,2,0,B|287:300|342:282,1,115,8|4,0:0|0:3,0:0:0:0:
439,246,42885,5,8,0:0:0:0:
408,146,43285,2,0,L|415:31,1,115,4|8,0:3|0:0,0:0:0:0:
312,44,44085,2,0,L|304:158,1,115,4|8,0:3|0:0,0:0:0:0:
223,223,44885,2,0,B|220:254|230:284,1,57.5,4|0,0:3|0:0,0:0:0:0:
255,325,45285,1,8,0:0:0:0:
162,371,45685,5,4,0:0:0:0:
88,298,46085,1,8,0:0:0:0:
88,298,46285,2,0,B|119:271|123:225|99:194,1,115,4|4,0:3|0:3,0:0:0:0:
78,146,46885,1,8,0:0:0:0:
78,146,47085,2,0,L|254:135,1,172.5,4|8,0:0|0:0,0:0:0:0:
348,168,48085,2,0,B|356:148|356:127|351:107,1,57.5,8|4,0:0|0:3,0:0:0:0:
342,60,48485,1,12,0:3:0:0:
266,26,48885,6,0,L|170:31,2,92,4|8|8,0:0|0:1|0:0,0:0:0:0:
342,60,50085,2,0,L|348:108,1,46,8|8,0:1|0:0,0:0:0:0:
375,136,50485,2,0,L|369:184,1,46,8|8,0:1|0:0,0:0:0:0:
350,218,50885,2,0,L|361:314,1,92,8|8,0:1|0:0,0:0:0:0:
297,363,51685,2,0,B|285:350|279:334|278:319,1,46,8|8,0:1|0:0,0:0:0:0:
240,305,52085,6,0,L|137:316,2,92,8|8|8,0:1|0:1|0:0,0:0:0:0:
317,274,53285,2,0,L|307:228,1,46,8|8,0:1|0:0,0:0:0:0:
306,187,53685,2,0,L|316:141,1,46,8|8,0:1|0:0,0:0:0:0:
335,105,54085,2,0,B|363:123|399:116|420:92,2,92,8|8|8,0:1|0:3|0:0,0:0:0:0:
255,56,55285,6,0,L|149:64,1,103.499996841431,4|8,0:0|0:0,0:0:0:0:
65,100,56085,2,0,B|36:101|15:127|19:158|38:175,1,103.499996841431,4|8,0:3|0:0,0:0:0:0:
107,241,56885,2,0,B|96:296|99:350,2,103.499996841431,4|8|4,0:3|0:0|0:3,0:0:0:0:
182,186,58085,1,8,0:0:0:0:
246,253,58485,6,0,B|267:273|297:277|322:263|336:242,1,103.499996841431,4|8,0:0|0:0,0:0:0:0:
398,173,59285,2,0,B|400:120|394:68,1,103.499996841431,4|8,0:3|0:0,0:0:0:0:
360,36,59885,1,4,0:3:0:0:
275,75,60285,1,8,0:3:0:0:
275,75,60485,2,0,L|171:71,2,103.499996841431,8|4|8,0:0|0:3|0:0,0:0:0:0:
307,107,61485,1,8,0:0:0:0:
307,107,63285,6,0,B|334:76|378:70|411:89,2,115,6|8|4,0:0|0:0|0:3,0:0:0:0:
290,209,64485,1,8,0:0:0:0:
345,296,64885,2,0,B|309:317|267:315|234:295,1,115,4|8,3:0|0:0,0:0:0:0:
138,327,65685,2,0,B|149:357|151:387,2,57.5,4|2|8,3:0|0:0|0:0,0:0:0:0:
63,254,66485,6,0,B|42:219|51:175|80:150,1,115,4|8,3:2|0:0,0:0:0:0:
147,70,67285,2,0,B|206:80|263:75,1,115,4|8,0:3|0:0,0:0:0:0:
356,37,68085,2,0,B|394:23|436:45|446:84,1,115,4|8,3:0|0:0,0:0:0:0:
471,185,68885,2,0,B|482:215|484:245,2,57.5,4|2|8,3:0|0:0|0:0,0:0:0:0:
371,157,69685,5,6,0:0:0:0:
282,102,70085,2,0,B|243:95|243:95|201:104|184:142,1,115,8|4,0:0|0:3,0:0:0:0:
185,244,70885,2,0,B|201:280|243:289|243:289|282:282,1,115,8|4,0:0|3:0,0:0:0:0:
381,251,71685,2,0,L|375:308,1,57.5,8|2,0:0|0:0,0:0:0:0:
390,357,72085,2,0,B|409:384|443:393|474:381|490:358,1,115,4|10,3:0|0:0,0:0:0:0:
484,255,72885,5,4,3:0:0:0:
452,156,73285,1,8,0:0:0:0:
414,59,73685,1,4,0:3:0:0:
311,72,74085,1,8,0:0:0:0:
272,167,74485,2,0,B|286:225|285:283,2,115,4|8|6,0:3|0:0|0:0,0:0:0:0:
208,86,75685,2,0,L|152:96,1,57.5,8|0,0:0|0:0,0:0:0:0:
112,130,76085,6,0,B|140:97|131:48|95:26,2,115,6|8|4,0:0|0:0|0:3,0:0:0:0:
45,209,77285,1,8,0:0:0:0:
146,227,77685,2,0,L|156:350,1,115,4|8,3:0|0:0,0:0:0:0:
253,374,78485,2,0,B|274:378|294:373|309:362,2,57.5,4|2|8,3:0|0:0|0:0,0:0:0:0:
260,270,79285,6,0,L|250:155,1,115,4|8,3:2|0:0,0:0:0:0:
284,57,80085,2,0,B|316:32|361:37|388:65,1,115,4|8,0:3|0:0,0:0:0:0:
402,168,80885,2,0,B|376:199|376:199|374:244|396:268,1,115,4|8,0:3|0:0,0:0:0:0:
500,286,81685,2,0,B|503:265|500:245|492:227,2,57.5,4|0|8,0:3|0:0|0:0,0:0:0:0:
458,378,82485,6,0,B|401:361|343:364,1,115,4|8,0:0|0:0,0:0:0:0:
256,308,83285,1,4,0:3:0:0:
167,363,83685,2,0,B|109:361|54:378,2,115,8|4|8,0:0|0:3|0:0,0:0:0:0:
256,308,84885,1,4,0:3:0:0:
331,237,85285,2,0,B|351:231|372:232|391:238,1,57.5,8|0,0:0|0:0,0:0:0:0:
430,266,85685,6,0,B|447:210|447:152,1,115,4|8,0:3|0:0,0:0:0:0:
418,52,86485,1,4,0:3:0:0:
314,49,86885,2,0,L|256:50,1,57.5,8|0,0:0|0:0,0:0:0:0:
215,82,87285,2,0,B|183:80|156:108|159:143|180:163,1,115,4|8,0:3|0:0,0:0:0:0:
179,267,88085,2,0,L|121:260,1,57.5,4|8,0:3|0:0,0:0:0:0:
72,243,88485,2,0,B|74:213|68:184,1,57.5,4|8,0:3|0:0,0:0:0:0:
51,136,88885,6,0,B|49:78|59:22,2,115,4|8|4,0:0|0:0|0:3,0:0:0:0:
72,243,90085,2,0,B|81:272|76:301,1,57.5,4|4,0:3|0:3,0:0:0:0:
107,341,90485,1,12,0:0:0:0:
405,341,91685,1,4,0:3:0:0:
347,254,92085,6,0,B|352:195|338:138,1,115,4|8,0:0|0:0,0:0:0:0:
385,47,92885,2,0,B|417:72|463:64|485:30,2,115,4|8|4,0:3|0:0|0:3,0:0:0:0:
284,21,94085,1,8,0:0:0:0:
183,46,94485,2,0,B|162:42|142:44|124:50,1,57.5,4|0,0:3|0:0,0:0:0:0:
76,62,94885,2,0,B|77:32|67:5,2,57.5,8|2|4,0:0|0:0|0:3,0:0:0:0:
65,164,95685,6,0,L|77:281,1,115,8|4,3:2|0:3,0:0:0:0:
158,215,96485,2,0,L|170:332,1,115,8|4,3:2|0:3,0:0:0:0:
260,379,97285,1,8,0:0:0:0:
335,308,97685,1,4,0:3:0:0:
405,232,98085,1,8,0:0:0:0:
412,128,98485,6,0,B|403:84|403:84|377:58|339:66,1,115,4|8,0:0|0:0,0:0:0:0:
237,42,99285,2,0,B|180:58|123:55,1,115,4|8,0:3|0:0,0:0:0:0:
83,150,100085,2,0,B|50:145|19:166|10:199|21:226,1,115,4|8,0:3|0:0,0:0:0:0:
113,265,100885,2,0,L|120:325,1,57.5,4|0,0:3|0:0,0:0:0:0:
128,373,101285,2,0,B|108:367|87:371|72:383,2,57.5,8|0|4,0:0|0:0|0:3,0:0:0:0:
230,357,102085,6,0,L|345:368,1,115,8|4,3:2|0:3,0:0:0:0:
301,273,102885,2,0,L|416:284,1,115,8|4,3:2|0:3,0:0:0:0:
490,212,103685,1,8,0:0:0:0:
410,145,104085,2,0,B|410:113|401:83,1,57.5,8|4,0:0|0:3,0:0:0:0:
361,57,104485,2,0,B|335:76|300:73|275:53|266:27,1,115,8|4,0:0|0:0,0:0:0:0:
256,192,105085,12,0,111285,0:0:0:0:
